Помогите снять защиту с видео !

Тема в разделе "Видео", создана пользователем WillyM, 7 окт 2012.

  1. WillyM

    WillyM Постоялец

    Регистр.:
    7 апр 2012
    Сообщения:
    136
    Симпатии:
    18
    Есть у меня старые диски работают под ХР.
    На семерке стартовать не хотят.
    На диске лежат АВИ вот такого формата

    General
    Complete name : F:\11.avi
    Format : AVI
    Format/Info : Audio Video Interleave
    File size : 95.8 MiB
    Duration : 14mn 1s
    Overall bit rate : 956 Kbps

    Video
    ID : 0
    Format : XCRY
    Codec ID : XCRY
    Duration : 14mn 0s
    Bit rate : 815 Kbps
    Width : 544 pixels
    Height : 400 pixels
    Display aspect ratio : 4:3
    Frame rate : 25.000 fps
    Bits/(Pixel*Frame) : 0.150
    Stream size : 81.7 MiB (85%)

    Audio
    ID : 1
    Format : CCCC
    Codec ID : CCCC
    Duration : 14mn 1s
    Bit rate : 128 Kbps
    Channel(s) : 2 channels
    Sampling rate : 44.1 KHz
    Stream size : 12.8 MiB (13%)
    Interleave, duration : 40 ms (1.00 video frame)
    Interleave, preload duration : 539 ms

    Работает видео только через ихнюю прогу и после активации
     
  2. Dee Hammand

    Dee Hammand Писатель

    Регистр.:
    26 апр 2013
    Сообщения:
    9
    Симпатии:
    2
    рискну нарваться на бан, но все же сам заинтересован в криптовании, поэтому встречный вопрос -
    что за источник? Кто эти авишки делает/продает? Что за фирменный плеер?
    Можно ли выложить образец видео скачать.
    Полагаю это их собственный кастом, небось шифрованный или смещенный заголовок, который плеер после активации восстановит.
    Если что, черкните мне в личку.
     
  3. WillyM

    WillyM Постоялец

    Регистр.:
    7 апр 2012
    Сообщения:
    136
    Симпатии:
    18
    Могу закатать образ и залить на облако или любую файлопомойку. Я нашел кодек и дополнение к VirtualDub -у. Просто забросил это в долгий ящик. Дайте мне пару дней обновлю воспоминания. Еще раз исследую эти образцы. Просто когдато отдал за них сумасшедшие деньги. Не ставить же обратно ХРюшу из-за этого материала.
     
  4. Dee Hammand

    Dee Hammand Писатель

    Регистр.:
    26 апр 2013
    Сообщения:
    9
    Симпатии:
    2
    А что кодек дабовский, как-то решает проблему? Или просто выражает готовность воспроизвести нешифрованный материал?
    Ок, жду ссылочку на видео.
     
  5. uf1976

    uf1976 Постоялец

    Регистр.:
    5 мар 2013
    Сообщения:
    81
    Симпатии:
    14
    А Перейти по ссылке? Нормально запиленный кодек для видео декодировать сложно.
     
  6. WillyM

    WillyM Постоялец

    Регистр.:
    7 апр 2012
    Сообщения:
    136
    Симпатии:
    18
    этот диск у Оракакла вызывает зависание и Блюскрин
     
  7. uf1976

    uf1976 Постоялец

    Регистр.:
    5 мар 2013
    Сообщения:
    81
    Симпатии:
    14
    Ещё, я надеюсь, авишки в KMPlayer, конечно, пробовал открывать? ;) (у него есть функция автоматического подбора кодеков).
    Если не помогает - отправляй-таки любую авишку через шару, попробую глянуть.
     
  8. WillyM

    WillyM Постоялец

    Регистр.:
    7 апр 2012
    Сообщения:
    136
    Симпатии:
    18
    Если честно то ужасно не люблю Корейский медиа плейер.
    Вот один из кусочков. Перейти по ссылке

    Проверил Кореец нервно курит

    Там же бросил корень сидюка и кодек который там был.
     
  9. WillyM

    WillyM Постоялец

    Регистр.:
    7 апр 2012
    Сообщения:
    136
    Симпатии:
    18
    Вот что я еще надыбал. На диске есть один кусочек видео совсем не зашифрован. Толи специально, толи плуганули. Вот его данные

    General
    Complete name : F:\KPD_IMPORT\03.avi
    Format : AVI
    Format/Info : Audio Video Interleave
    File size : 213 MiB
    Duration : 31mn 15s
    Overall bit rate : 954 Kbps
    Writing application : Nandub v1.0rc2
    Writing library : Nandub build 1852/release

    Video
    ID : 0
    Format : MPEG-4 Visual
    Codec ID : MP42
    Codec ID/Info : Microsoft MPEG-4 v2 (pre-standard)
    Codec ID/Hint : Microsoft
    Duration : 31mn 15s
    Bit rate : 817 Kbps
    Width : 544 pixels
    Height : 400 pixels
    Display aspect ratio : 4:3
    Frame rate : 25.000 fps
    Compression mode : Lossy
    Bits/(Pixel*Frame) : 0.150
    Stream size : 183 MiB (86%)

    Audio
    ID : 1
    Format : MPEG Audio
    Format version : Version 1
    Format profile : Layer 3
    Mode : Joint stereo
    Mode extension : MS Stereo
    Codec ID : 55
    Codec ID/Hint : MP3
    Duration : 31mn 15s
    Bit rate mode : Constant
    Bit rate : 128 Kbps
    Channel(s) : 2 channels
    Sampling rate : 44.1 KHz
    Compression mode : Lossy
    Stream size : 28.6 MiB (13%)
    Alignment : Split accross interleaves
    Interleave, duration : 40 ms (1.00 video frame)
    Interleave, preload duration : 466 ms
     
  10. uf1976

    uf1976 Постоялец

    Регистр.:
    5 мар 2013
    Сообщения:
    81
    Симпатии:
    14
    Кодек не наколенкеписанный. У меня открыть не получилось никакими комбинациями.