[Веб] Видеокурс "Joomla Express"

Тема в разделе "Литература", создана пользователем EgorovEgor, 15 сен 2009.

Статус темы:
Закрыта.
Модераторы: Hilo
  1. EgorovEgor

    EgorovEgor Постоялец

    Регистр.:
    15 май 2009
    Сообщения:
    86
    Симпатии:
    47
    [​IMG]

    Автор: Александр Боровой
    Год выпуска: 2009
    Формат: видео
    Размер: 192 Мб

    Бесплатный базовый экспресс видеокурс о том, как создать сайт. С помощью данного видеокурса уже в первый день Вы сможете создать профессиональный сайт. В течение месяца ваш сайт станет основой Вашего высокодоходного бизнеса в интернете.

    1. Вводный видеоурок.
    Какие типы сайтов существуют и как выбрать тип сайта именно для Вашего проекта. Как выбрать тему для Вашего сайта и почему важно выбрать правильно тему. Базовые принципы планирования создания сайта. Стратегия заработка на сайте с рассмотрением реальных примеров.

    2. Установка Joomla.
    Рассмотрим общую структуру создания сайта, какие этапы наиболее важны. Что такое локальный Web - сервер и для чего он нужен, его составляющие. Создание локального сайта, создание базы данных для сайта. Выполняем установку Joomla, вводим конфигурационные данные для работы.

    3. Разделы, категории, материалы.
    Структура администрирования сайта на Joomla, почему её важно понимать. Принципы понимания разделов, категори и материалов в Joomla. Особенности работы с материалами, вставка текста, таблиц, изображений. Создание кнопочки "Подробнее", особенности редактирования параметров статей.

    4. Создание меню.
    Что из себя представляет меню в Joomla, как редактировать меню. Учимся добавлять новый пункт меню, какие типы меню существуют. Как выводятся статьи в формате блога, особенности вывода блога и других типов. Как управлять выводом статей посредством настроек меню. Как создать вложенные пункты меню, как создать новое меню. Управляем положением меню в различных модулях сайта.

    5. Компоненты, модули, плагины.
    Какими способами выполняется установка компонентов, модулей и плагинов. Какие компоненты, модули и плагины существуют и для чего они нужны. Рассматриваем установку компонента на примере, пример установки модуля. Как активировать стандартные модули, установленные в Joomla. Как включить плагин из стандартного набора на примере рейтинга статей. Как настроить отображение модуля для определённого пункта меню.

    6. Шаблоны, настройки, инструменты.
    В чём преимущество использования шаблонов. Что из себя представляет шаблон и как его установить в Joomla. Как применить шаблон для сайта. Общие настройки Joomla, выполняем краткий обзор всех настроек. Параметры сессии, настройки сервера, дополнительные инструменты Joomla.

    7. Закачка сайта Joomla на хостинг.
    Что такое домен и хостинг и как выбрать хостинг для сайта Joomla. Какой FTP менеджер лучше выбрать, как его настроить и закачать файлы. Как экспортировать локальную базу данных, создаём базу данных на хостинге. Как импортировать базу данных на хостинг и настроить её для работы.

    Видео кодек: Windows Media
    Видео: Format: VC-1, Format profile: MP@ML, Codec ID: WMV3, Codec ID/Info: Windows Media Video 9, Codec ID/Hint: WMV3, Duration: 14mn 5s, Bit rate mode: Variable, Bit rate: 111 Kbps, Width: 640 pixels, Height: 480 pixels, Display aspect ratio: 4/3, Frame rate: 15.000 fps, Resolution: 24 bits, Scan type: Progressive, Bits/(Pixel*Frame:( 0.024, Stream size: 11.2 MiB (64%)
    Аудио: Format: WMA2, Format profile: L2, Codec ID: 161, Codec ID/Info: Windows Media Audio 2, Description of the codec: Windows Media Audio 9.2 - 48 kbps, 44 kHz, mono (A/V) 1-pass, CBR Duration: 14mn 5s, Bit rate mode: Constant, Bit rate: 48.0 Kbps, Channel(s:( 1 channel, Sampling rate: 44.1 KHz, Resolution: 16 bits, Stream size: 4.84 MiB (28%)

    letitbit.net
    turbobit.net
     
    Gary_mix и Rabinovich нравится это.
Статус темы:
Закрыта.